» » user48736353001 - 11 Phlangebeat
user48736353001 - 11 Phlangebeat album download

user48736353001 - 11 Phlangebeat album download

Performer: user48736353001
Title: 11 Phlangebeat
Style: IDM
Released: 2015
Size MP3 version: 1812 mb
Size FLAC version: 1642 mb
Size WMA version: 1941 mb
Rating: 4.8
Votes: 385
Format: VOC AC3 AHX XM WAV MIDI ADX
Genre: Electronic

user48736353001 - 11 Phlangebeat album download


Watch the video for 11 Phlangebeat by user48736353001 for free, and see the artwork, lyrics and similar artists. 11 Phlangebeat (4:36). Overview (current section).

Stream Tracks and Playlists from user48736353001 on your desktop or mobile device.

Слушайте и скачивайте user48736353001 на Хотплеере в mp. .

user48736353001 (Aphex Twin) скачать mp3 в хорошем качестве, либо слушайте песню Aphex Twin - 54 Cymru Beats, Aphex Twin - Fork Rave, user48736353001 (Aphex Twin) - 18 With My Family, user48736353001 (Aphex Twin) - 35 Japan, а также рингтоны на звоно.

user48736353001" INDEX 01 00:10:05 TRACK 04 AUDIO TITLE "11 Phlangebeat" PERFORMER "user48736353001" INDEX 01 00:11:51 TRACK 05 AUDIO TITLE "CooltempoDemo" PERFORMER "user48736353001" INDEX 01 00:15:27 TRACK 06 AUDIO TITLE "11 Phlangebeat" PERFORMER "user48736353001" INDEX 01 00:15:51 TRACK 07 AUDIO TITLE "Nova Robotiks" PERFORMER "user48736353001" INDEX 01 00:19:01 TRACK.

org Aphex Twin user48736353001 (112 previousy unreleased AFX tracks) Music. me Aphex Twin user48736353001 (112 previousy unreleased AFX tracks) Other Misc. com user48736353001 Music. com Aphex Twin User48736353001 (112 Previousy Unreleased AFX Tracks) Music. ch 353001-(ased-AFX-tracks)- Music. mp311 MB. 11 Slo Bird Whistle. mp38,372 KB. 12 Phuqed U. p33,096 KB. 12 Rough Beat Tune.

album Weekly Top. album Pop Hotlist. user18081971 (Aphex Twin) - 8 Knife Fork Freq. user18081971 (Aphex Twin) - 11 Phlangebeat.

09. 1 Chink 101 // featuring rsf sd140 drum machine , i think afx might have used one also. 10. 24 Squalitude Acid // 36 clithole crescent. 11. SomewhereOTTGTBAG // Llannerlog. shout goin out to barry paine! 12. // 1990. 13. X - Rays // Llannerlog 1991.

user48736353001 33 jonny hawkes broken guitar. play) (pause) (download) (fb) (vk) (tw). user48736353001 14 Cornish Spreek5b.

Слушайте User48736353001 (Aphex Twin) и скачивайте бесплатно в формате mp3 прямо сейчас, без кодов, смс и регистрации. 1 Lmt - user48736353001 (Aphex Twin). 19 Winding Road - user48736353001 (Aphex Twin). 3 Slothscrape - user48736353001 (Aphex Twin). Quad Rave TEAC - user48736353001 (Aphex Twin). 14 Make A Baby - user48736353001 (aka Aphex Twin). 1 nocares - user48736353001. 15 bradley jam pump - user48736353001. Just Fall Asleep - Aphex Twin.

Tracklist

1 11 Phlangebeat 4:36

Notes

94ish