» » Eddie "Lockjaw" Davis Quintet With Shirley Scott - Jaws In Orbit
Eddie "Lockjaw" Davis Quintet With Shirley Scott - Jaws In Orbit album download

Eddie "Lockjaw" Davis Quintet With Shirley Scott - Jaws In Orbit album download

Performer: Eddie "Lockjaw" Davis Quintet
Title: Jaws In Orbit
Style: Soul-Jazz
Released: 1988
Country: US
Size MP3 version: 1815 mb
Size FLAC version: 1666 mb
Size WMA version: 1894 mb
Rating: 4.1
Votes: 725
Format: WMA WAV AUD ADX AC3 MP1 AHX
Genre: Jazz

Eddie "Lockjaw" Davis Quintet With Shirley Scott - Jaws In Orbit album download


Eddie "Lockjaw" Davis, Shirley Scott. 50+ видео Воспроизвести все.

Слушайте Eddie 'lockjaw' Davis Quintet With Shirley Scott и скачивайте бесплатно в формате mp3 прямо сейчас, без кодов, смс и регистрации.

Eddie 'Lockjaw' Davis: Jaws In Orbit/The Eddie 'Lockjaw' Davis Cookbook - Eddie 'Lockjaw' Davis, George Gershwin. Открывайте новую музыку каждый день.

Благодаря удобной упаковке Orbit тебе не придется отвлекаться от дороги.

Recorded in Hackensack, NJ; May 1, 1959. Digital remastering, 1992, Fantasy Studios, Berkeley. Manufactured under license for distribution by ZYX-Music GmbH.

View first unread post Eddie 'Lockjaw' Davis & Shirley Scott - Bacalao (1959/2003) ; FLAC (image+. cue) by Mike1985 13 Jul 2018, 16:40 in Bop (lossless - FLAC, APE, et. 0. 378. by Mike1985 View the latest post 13 Jul 2018, 16:40. cue) by Mike1985 17 Feb 2019, 12:00 in Bop (lossless - FLAC, APE, et. 229. by Mike1985 View the latest post 17 Feb 2019, 12:00

Eddie "Lockjaw" Davis. In the 1950s, he was playing with Sonny Stitt, while from 1960 to 1962, he and fellow tenor saxophonist Johnny Griffin led a quintet Davis died of Hodgkin's lymphoma cancer in Culver City, California, at the age of 6. .1958: The Eddie "Lockjaw" Davis Cookbook, Vol. 2 (Prestige) – with Shirley Scott, Jerome Richardson; also released as The Rev (Prestige, 1970). 1958: The Eddie "Lockjaw" Davis Cookbook Volume 3 (Prestige) – with Shirley Scott, Jerome Richardson; released 1961. 1959: Jaws in Orbit (Prestige) – with Steve Pulliam, Shirley Scott. 1959: Bacalao (Prestige) – with Shirley Scott.

Eddie Lockjaw Davis Quintet With Shirley Scott. Eddie Lockjaw Davis, Shirley Scott – Smoke Gets in Your Eyes. Eddie Lockjaw Davis, Shirley Scott – In The Kitchen. Eddie Lockjaw Davis feat.

Bingo Domingo (5:57) Personnel: Eddie "Lockjaw" Davis - tenor saxophone Shirley Scott - organ Steve Pulliam - trombone George Duvivier - bass Arthur Edgehill - drums. AUDIO TITLE "Our Delight" PERFORMER "Eddie 'Lockjaw' Davis Quintet With Shirley Scott" INDEX 00 05:49:40 FILE "04 - Our Delight. wav" WAVE INDEX 01 00:00:00 TRACK 05 AUDIO TITLE "Bahia" PERFORMER "Eddie 'Lockjaw' Davis Quintet With Shirley Scott" INDEX 00 06:19:65 FILE "05 - Bahia. wav" WAVE INDEX 01 00:00:00 TRACK 06 AUDIO TITLE "Bingo Domingo" PERFORMER. Eddie 'Lockjaw' Davis Quintet With Shirley Scott" INDEX 00 07:27:28 FILE "06 - Bingo Domingo. wav" WAVE INDEX 01 00:00:00.

This CD reissue features the duo joined by bassist George Duvivier, drummer Arthur Edgehill and the obscure trombonist Steve Pulliam for a typically swinging set of basic originals and standards. Highlights include a hard-swinging "Intermission Riff" and "Our Delight. Related Release: Eddie Davis - The Eddie Lockjaw Davis Cookbook (2019).

Album: Jaws In Orbit (2017). Artist: Eddie "Lockjaw" Davis Quintet With Shirley Scott.

Tracklist

A1 Intermission Riff
A2 Can't Get Out Of This Mood
A3 Foxy
B1 Our Delight
B2 Bahia
B3 Bingo Domingo

Credits

  • Bass – George Duvivier
  • Drums – Arthur Edgehill
  • Engineer [Recording] – Rudy Van Gelder
  • Organ – Shirley Scott
  • Remastered By – Phil De Lancie
  • Supervised By – Esmond Edwards
  • Tenor Saxophone – Eddie "Lockjaw" Davis
  • Trombone – Steve Pulliam

Notes

Recorded in Hackensack, NJ; May 1, 1959.
1988 reissue remastered by Phil De Lancie of Fantasy Studios, Berkeley, CA.

Barcode and Other Identifiers

  • Matrix / Runout: Side 1: OJC 322 A1 G1D (A)
  • Matrix / Runout: Side 2: OJC 322 B-G1B G1 (PXTX)

Other versions

Category Artist Title (Format) Label Category Country Year
7171 Eddie "Lockjaw" Davis Quintet* With Shirley Scott Eddie "Lockjaw" Davis Quintet* With Shirley Scott - Jaws In Orbit ‎(LP, Album) Prestige 7171 US 1959
OJCCD 322-2, P-7171 Eddie "Lockjaw" Davis Quintet* With Shirley Scott Eddie "Lockjaw" Davis Quintet* With Shirley Scott - Jaws In Orbit ‎(CD, Album, RE, RM) Original Jazz Classics, Prestige OJCCD 322-2, P-7171 Europe 1992
none Eddie "Lockjaw" Davis Quintet* With Shirley Scott Eddie "Lockjaw" Davis Quintet* With Shirley Scott - Jaws In Orbit ‎(File, FLAC, Album, RE, RM, 24-) Rev-Ola none 2019
OJCCD 322-2, P-7171 Eddie "Lockjaw" Davis Quintet* With Shirley Scott Eddie "Lockjaw" Davis Quintet* With Shirley Scott - Jaws In Orbit ‎(CD, Album, RE, RM) Original Jazz Classics, Prestige OJCCD 322-2, P-7171 US 1992
PR 7171 Eddie "Lockjaw" Davis Quintet* With Shirley Scott Eddie "Lockjaw" Davis Quintet* With Shirley Scott - Jaws In Orbit ‎(LP, Album, Mono, RE) Prestige PR 7171 US Unknown