» » Adrian Gurvitz - Sweet Vendetta
Adrian Gurvitz - Sweet Vendetta album download

Adrian Gurvitz - Sweet Vendetta album download

Performer: Adrian Gurvitz
Title: Sweet Vendetta
Style: Pop Rock, Disco
Released: 1992
Country: US
Size MP3 version: 1529 mb
Size FLAC version: 1165 mb
Size WMA version: 1463 mb
Rating: 4.4
Votes: 779
Format: AUD DXD APE MIDI TTA VOX WAV
Genre: Rock / Pop

Adrian Gurvitz - Sweet Vendetta album download


Album · 1978 · 10 Songs.

Слушайте и скачивайте sweet vendetta на Хотплеере в mp. .

Listen free to Adrian Gurvitz – Sweet Vendetta (Untouchable and Free, The Wonder of It All and more). Discover more music, concerts, videos, and pictures with the largest catalogue online at Last.

Complete your Adrian Gurvitz collection. Adrian Gurvitz ‎– Sweet Vendetta. Genre: Rock, Pop. Style: Pop Rock, Disco. Sweet Vendetta ‎(LP, Album).

Not long after The Gun disbanded, Gurvitz began work on his first solo album, which turned into Three Man Army's debut album, A Third of a Lifetime. Three Man Army was signed to Reprise Records and Warner Bros. The debut album featured several drummers, including Band of Gypsy's drummer Buddy Miles. Shortly after Jimi Hendrix's death, Miles invited Gurvitz to join his band, The Buddy Miles Express, on its US tour. The tour lasted for two solid years and they played in front of 50,000 people a night  . Japan: Smash hit. 1979. UK and European charts No. 8.

Sweet Vendetta, 2011. Untouchable and Free, 05:01. The Wonder of It All, 04:14. Put a Little Love (In Life's Heart), 06:16. The Way I Feel, 05:17. Time Is Endless, 03:58.

Listen to Sweet Vendetta now. Listen to Sweet Vendetta in full in the this site app. Play on this site.

Listen to Adrian Gurvitz Radio featuring songs from Sweet Vendetta free online. Слушать бесплатное интернет-радио, спорт, музыку, новости, разговорное и подкасты. События в прямом эфире, трансляции игр NFL, MLB, NBA, NHL, университетских команд и матчи Премьер-лиги. Спорт, музыка, новости и подкасты. Слушайте аудиоконтент, который для вас наиболее важен.

Exclusive Prime pricing. I Love this album! ADRIAN GURVITZ is an artist i've only discovered a couple of years ago while surfing you tube and i'm glad i found hi. his is a feel good album,soulful,funky from start to finish not a bad song on here,think Jamiroquai!Songs like love space,untouchable and free,the wonder of it all and the way i feel.

Tracklist Hide Credits

1 Untouchable And Free 4:57
2 The Wonder Of It All
Trumpet [Solo] – Jerry Hey
4:13
3 Put A Little Love (In Life's Heart) 6:15
4 Love Space 4:46
5 The Way I Feel 5:14
6 Time Is Endless 3:57
7 I Just Wanna Get Inside Your Head
Saxophone [Solo] – Earl Lon Price*
3:56
8 Free Ride 5:26
9 One More Time 2:50

Companies, etc.

  • Manufactured By – Sony Music Entertainment (Japan) Inc.

Credits

  • Arranged By [Horns], Trumpet – Jerry Hey
  • Arranged By [Strings] – David Paich, Marty Paich, Steve Porcaro
  • Backing Vocals – Paul Gurvitz
  • Bass – David Hungate, David Shields
  • Co-producer – Paul Gurvitz
  • Drums – Ed Greene , Jeff Porcaro, Rick Shlosser
  • Flute – Steve Leeds
  • Guitar – Fred Tacket*
  • Liner Notes – 小林慎一郎
  • Percussion – Joe Porcaro
  • Saxophone – Steve Leeds
  • Synthesizer – Steve Porcaro
  • Trombone – Sly Hyde*
  • Trumpet – Chuck Findley, Steve Madaio
  • Written-By, Backing Vocals, Lead Guitar, Lead Vocals, Producer – Adrian Gurvitz

Notes

Comes with printed inner sleeve

Barcode and Other Identifiers

  • Barcode: 4 988009 622422
  • Rights Society: JASRAC

Other versions

Category Artist Title (Format) Label Category Country Year
JZ 35782 Adrian Gurvitz Sweet Vendetta ‎(LP, Album, Ter) Jet Records JZ 35782 US 1979
JZ 35782 Adrian Gurvitz Sweet Vendetta ‎(LP, Album, Promo) Jet Records JZ 35782 US 1979
ASF2314 Adrian Gurvitz Sweet Vendetta ‎(LP, Album) Jet Records ASF2314 South Africa 1979
JT 6015 Adrian Gurvitz Sweet Vendetta ‎(LP, Album) Jet Records JT 6015 Australia 1979
25AP-1386 Adrian Gurvitz Sweet Vendetta ‎(LP, Album) Jet Records 25AP-1386 Japan 1979


Taulkree
foobar2000 1.3.17 / Dynamic Range Meter 1.1.1log date: 2019-03-21 21:43:42--------------------------------------------------------------------------------Analyzed: Adrian Gurvitz / Sweet Vendetta [JP 1992 CD]--------------------------------------------------------------------------------DR Peak RMS Duration Track--------------------------------------------------------------------------------DR14 -0.74 dB -17.38 dB 5:02 01-Untouchable And FreeDR15 -1.19 dB -18.53 dB 4:15 02-The Wonder Of It AllDR14 -3.48 dB -20.70 dB 6:17 03-Put A Little Love (In Life's Heart)DR15 -1.70 dB -18.92 dB 4:48 04-Love SpaceDR15 -1.63 dB -18.95 dB 5:18 05-The Way I FeelDR12 -4.84 dB -21.54 dB 3:59 06-Time Is EndlessDR14 -1.55 dB -18.86 dB 4:01 07-I Just Wanna Get Inside Your HeadDR15 -0.73 dB -19.12 dB 5:30 08-Free RideDR12 -4.21 dB -20.19 dB 2:53 09-One More Time--------------------------------------------------------------------------------Number of tracks: 9Official DR value: DR14Samplerate: 44100 HzChannels: 2Bits per sample: 16Bitrate: 552 kbpsCodec: ALAC================================================================================