» » Patti Austin - Body Language
Patti Austin - Body Language album download

Patti Austin - Body Language album download

Performer: Patti Austin
Title: Body Language
Style: Soul, Rhythm & Blues
Released: 2016
Country: US
Size MP3 version: 1563 mb
Size FLAC version: 1985 mb
Size WMA version: 1502 mb
Rating: 4.6
Votes: 709
Format: RA ADX AHX MP2 DMF DXD XM
Genre: Funk - Soul

Patti Austin - Body Language album download


Patti Austin is a jazz vocalist whose venture into dance/disco music in the early 80s brought new life to a new period of music. This album gave a new spirit to this vocalists sound.

Discover more music, concerts, videos, and pictures with the largest catalogue online at Last.

Patti Austin (born August 10, 1950) is an American R&B, pop and jazz singer. Austin was born in Harlem, New York, to Gordon Austin, a jazz trombonist. Austin was raised in Bay Shore, New York on Long Island. Quincy Jones and Dinah Washington have referred to themselves as her godparents. When Austin was four years old, she made her debut at the Apollo Theater and the next year had a contract with RCA Records.

Album · 1980 · 10 Songs. Listen on Apple Music.

Album by Patti Austin. was sampled in. Debbie Does Delay by Jad & The (2018).

The fourth album Patti Austin cut for the CTI label wasn't much different from the previous three. It was a patchwork quilt: a little fusion, a little quasi-jazz, some urban contemporary material, and even a standard or two. She sang them all with ease and grace, although things were so smooth that they were almost comatose at times. Austin would later go on to score much bigger hits. Austin would later go on to score much bigger hits working with Quincy Jones, who at least injected enough hooks and tricks into his urban contemporary stuff to grab someone's attention.

Tracklist Hide Credits

1 Body Language
Written-By – I. Hayes*
5:03
2 Another Nail For My Heart
Written-By – C. Difford*, G. Tilbrook*
3:12
3 S.O.S.
Written-By – D. Wagner*
3:53
4 We've Got Tonight
Written-By – B. Seger*
4:15
5 (Ooh-Wee) He's Killing Me
Written-By – M. Buckins*, R. McCormack*
3:25
6 I Can't Stop
Written-By – M. Buckins*, R. McCormack*
3:27
7 Love Me Again
Written-By – A. Willis*, D. Lasley*
3:41
8 Soar Me Like An Eagle Flies
Written-By – A. Aldridge*, C. Richardson*
3:30
9 People In Love (Do The Strangest Things)
Written-By – B. Beckett*, J. Weaver*, T. Jones III*
2:45
10 I Want You Tonight
Written-By – A. Willis*, C. Lerios*, D. Jenkins*
3:40

Companies, etc.

  • Distributed By – King Record Co. Ltd

Credits

  • Alto Saxophone – Jerry Dodgion (tracks: 8)
  • Arranged By – Jeremy Wall, Muscle Shoals Rhythm Section
  • Backing Vocals – Ava Aldridge, Cindy Richardson, Marie Tomlinson Clark, The Shoals Sisters
  • Bass – David Hood (tracks: 2, 4, 7), Will Lee (tracks: 5, 8, 9)
  • Conductor – Jeremy Wall
  • Drums – Roger Hawkins
  • Engineer – Steve Melton
  • Engineer [Assistant] – Mary Beth McLemore
  • Guitar [Solo] – John Tropea (tracks: 5, 9, 10)
  • Keyboards – Jeremy Wall, Randy McCormick
  • Lead Guitar, Rhythm Guitar – Duncan Cameron
  • Mastered By – Ted Jensen
  • Percussion – Mickey Buckins
  • Photography By, Design – Ed Caraeff
  • Producer – Creed Taylor
  • Reissue Producer – Nedra Olds-Neal
  • Reissue Producer, Remastered By – Arnaldo DeSouteiro
  • Remastered By – Mark Wilder
  • Synthesizer [Programming] – Suzanne Ciani
  • Tenor Saxophone – Michael Brecker (tracks: 6 to 8, 10)
  • Trombone – Jim Pugh (tracks: 8)
  • Trumpet – Randy Brecker (tracks: 8)

Notes

First CD release in Japan.
Album originally released on CTI Records as CTI 9001/CBS JZ 36503 in July 1980.

Barcode and Other Identifiers

  • Rights Society: JASRAC

Other versions

Category Artist Title (Format) Label Category Country Year
JZ 36503 Patti Austin Body Language ‎(LP, Album) CTI Records JZ 36503 US 1980
PZT 36503 Patti Austin Body Language ‎(Cass, Album) CTI Records PZT 36503 US 1980
CTA-1019 Patti Austin Body Language ‎(LP, Album) CTI Records CTA-1019 Philippines 1980
J 073 Patti Austin Body Language ‎(Cass, Album) Contessa J 073 Indonesia 1980
K26P-6169 Patti Austin Body Language ‎(LP) King Records K26P-6169 Japan 1982


Little Devil
foobar2000 1.3.17 / Dynamic Range Meter 1.1.1log date: 2018-12-18 21:10:23--------------------------------------------------------------------------------Analyzed: Patti Austin / Body Language [JP 2016 Blu-Spec CD]--------------------------------------------------------------------------------DR Peak RMS Duration Track--------------------------------------------------------------------------------DR14 -0.01 dB -16.21 dB 5:05 01-Body LanguageDR12 -0.01 dB -14.78 dB 3:13 02-Another Nail For My HeartDR12 -0.01 dB -15.91 dB 3:56 03-S.O.S.DR12 -0.01 dB -16.67 dB 4:17 04-We've Got TonightDR13 -0.01 dB -15.47 dB 3:30 05-(Ooh-Wee) He's Killing MeDR13 -0.01 dB -14.96 dB 3:29 06-I Can't StopDR13 -0.01 dB -16.91 dB 3:44 07-Love Me AgainDR12 -0.01 dB -14.12 dB 3:35 08-Soar Me Like An Eagle FliesDR13 -0.01 dB -14.72 dB 2:47 09-People In Love (Do The Strangest Things)DR12 -0.01 dB -13.80 dB 3:45 10-I Want You Tonight--------------------------------------------------------------------------------Number of tracks: 10Official DR value: DR13Samplerate: 44100 HzChannels: 2Bits per sample: 16Bitrate: 862 kbpsCodec: ALAC================================================================================